Хоббит Битва Пяти Воинств 2014 торрент

      Комментарии к записи Хоббит Битва Пяти Воинств 2014 торрент отключены

Уважаемый гость, на данной странице Вам доступен материал по теме: Хоббит Битва Пяти Воинств 2014 торрент. Скачивание возможно на компьютер и телефон через торрент, а также сервер загрузок по ссылке ниже. Рекомендуем также другие статьи из категории «Торренты».

Хоббит Битва Пяти Воинств 2014 торрент.rar
Закачек 3932
Средняя скорость 4711 Kb/s

Хоббит Битва Пяти Воинств 2014 торрент

21965 Кбит/сек Аудио: AC3 5.1, 448 Кбит/сек [Русский — дублированный] Субтитры: Русские, английские

11.5 Mb/s (avg), 23,976 fps Аудио: Русский AC3, 448 kbps, 5.1 ch, 16 bits Субтитры: Русские (forced hardsub 3D)

Скачать фильм Хоббит: Битва пяти воинств через торрент в хорошем качестве бесплатно

448 kbps, 3/2 (L,C,R,l,r) + LFE ch /RUS/ Субтитры: Русские (форс. + полные), Украинские (форс.), Английские ( +SDH) |отключаемые *.srt|

13,6 Mbps, 1920 х 1080, 23,976 fps Аудио: Русский, AC3 5.1, 384 kbps, 48 kHz (DUB, iTunes) Субтитры: Русский, Украинский, Английский

3639 Кбит/сек
Аудио 1: AC3 5.1, 384 Кбит/сек [Английский — оригинал]
Аудио 2: AC3 5.1, 448 Кбит/сек [Русский — дублированный]
Видео: Идентификатор : 224 (0xE0) Формат : MPEG Video Версия формата : Version 2 Профиль формата : Main@Main Параметр BVOP формата : Да Параметр матрицы формата : Выборочная Параметр GOP формата : Variable Продолжительность : 31 м. Вид битрейта : Переменный Битрейт : 3639 Кбит/сек Максимальный битрейт : 7201 Кбит/сек Ширина : 720 пикселей Высота : 480 пикселей Соотношение сторон : 16:9 Частота кадров : 23,976 кадра/сек Стандарт вещания : NTSC Цветовое пространство : YUV Субдискретизация насыщенности : 4:2:0 Битовая глубина : 8 бит Тип развёртки : Прогрессивная Порядок развёртки : 2:3 Pulldown Метод сжатия : С потерями Бит/(Пиксели*Кадры) : 0.439 Временной код первого кадра : 01:07:45:02 Оригинал временного кода : Group of pictures header Размер потока : 1021 Мбайт (100%)
Аудио #1: Идентификатор : 189 (0xBD)-128 (0x80) Формат : AC-3 Формат/Информация : Audio Coding 3 Расширение режима : CM (complete main) Параметр Endianness формата : Big Режим смешивания : DVD-Video Продолжительность : 31 м. Вид битрейта : Постоянный Битрейт : 384 Кбит/сек Каналы : 6 каналов Расположение каналов : Front: L C R, Side: L R, LFE Частота : 48,0 КГц Битовая глубина : 16 бит Метод сжатия : С потерями Задержка видео : -719 мс. Размер потока : 86,2 Мбайт (8%)
Аудио #2: Идентификатор : 189 (0xBD)-130 (0x82) Формат : AC-3 Формат/Информация : Audio Coding 3 Расширение режима : CM (complete main) Параметр Endianness формата : Big Режим смешивания : DVD-Video Продолжительность : 31 м. Вид битрейта : Постоянный Битрейт : 448 Кбит/сек Каналы : 6 каналов Расположение каналов : Front: L C R, Side: L R, LFE Частота : 48,0 КГц Битовая глубина : 16 бит Метод сжатия : С потерями Задержка видео : -687 мс. Размер потока : 101 Мбайт (10%)

10555 kbps avg, 0.287 bit/pixel
Аудио#1: 48 kHz/16-bit, AC3 Dolby Digital, 3/2 (L,C,R,l,r) + LFE ch,

Хоббит: Битва пяти воинств

12800 kbps avg
Субтитры: Russian (Forced, iTunes), Russian (iTunes), Ukrainian (iTunes), English
Видео: Идентификатор : 1 Формат : AVC Формат/Информация : Advanced Video Codec Профиль формата : High@L4.1 Параметр CABAC формата : Да Параметр ReFrames формата : 5 кадров Идентификатор кодека : V_MPEG4/ISO/AVC Продолжительность : 2 ч. 44 м. Битрейт : 12,8 Мбит/сек Ширина : 1920 пикселей Высота : 800 пикселей Соотношение сторон : 2,40:1 Режим частоты кадров : Постоянный Частота кадров : 23,976 кадра/сек Цветовое пространство : YUV Субдискретизация насыщенности : 4:2:0 Битовая глубина : 8 бит Тип развёртки : Прогрессивная Бит/(Пиксели*Кадры) : 0.348 Размер потока : 14,3 Гбайт (84%) Заголовок : BLUEBIRD Библиотека кодирования : x264 core 148 r2638 7599210 Настройки программы : cabac=1 / ref=5 / deblock=1:-3:-3 / analyse=0x3:0x113 / me=umh / subme=11 / psy=1 / psy_rd=1.00:0.00 / mixed_ref=1 / me_range=32 / chroma_me=1 / trellis=2 / 8x8dct=1 / cqm=0 / deadzone=21,11 / fast_pskip=0 / chroma_qp_offset=-2 / threads=12 / lookahead_threads=2 / sliced_threads=0 / nr=0 / decimate=0 / interlaced=0 / bluray_compat=0 / constrained_intra=0 / bframes=9 / b_pyramid=2 / b_adapt=2 / b_bias=0 / direct=3 / weightb=1 / open_gop=1 / weightp=2 / keyint=240 / keyint_min=23 / scenecut=40 / intra_refresh=0 / rc=2pass / mbtree=0 / bitrate=12800 / ratetol=1.0 / qcomp=0.60 / qpmin=0 / qpmax=69 / qpstep=4 / cplxblur=20.0 / qblur=0.5 / ip_ratio=1.40 / pb_ratio=1.30 / aq=3:0.80 Язык : English Default : Да Forced : Нет
Аудио #1: Идентификатор : 2 Формат : AC-3 Формат/Информация : Audio Coding 3 Расширение режима : CM (complete main) Параметр Endianness формата : Big Идентификатор кодека : A_AC3 Продолжительность : 2 ч. 44 м. Вид битрейта : Постоянный Битрейт : 448 Кбит/сек Каналы : 6 каналов Расположение каналов : Front: L C R, Side: L R, LFE Частота : 48,0 КГц Метод сжатия : С потерями Размер потока : 526 Мбайт (3%) Язык : Russian Default : Да Forced : Нет
Аудио #2: Идентификатор : 3 Формат : DTS Формат/Информация : Digital Theater Systems Режим : 16 Параметр Endianness формата : Big Идентификатор кодека : A_DTS Продолжительность : 2 ч. 44 м. Вид битрейта : Постоянный Битрейт : 1509 Кбит/сек Каналы : 6 каналов Расположение каналов : Front: L C R, Side: L R, LFE Частота : 48,0 КГц Битовая глубина : 24 бит Метод сжатия : С потерями Размер потока : 1,73 Гбайт (10%) Заголовок : Original Язык : English Default : Нет Forced : Нет
Аудио #3: Идентификатор : 4 Формат : AC-3 Формат/Информация : Audio Coding 3 Профиль формата : Dolby Digital Расширение режима : CM (complete main) Параметр Endianness формата : Big Идентификатор кодека : A_AC3 Продолжительность : 2 ч. 44 м. Вид битрейта : Постоянный Битрейт : 192 Кбит/сек Каналы : 2 канала Расположение каналов : Front: L R Частота : 48,0 КГц Метод сжатия : С потерями Размер потока : 225 Мбайт (1%) Заголовок : Commentary Язык : English Default : Нет Forced : Нет

4870 Кбит/сек
Аудио 1: AC3 5.1, 384 Кбит/сек [Английский — оригинал]
Аудио 2: AC3 5.1, 384 Кбит/сек [Французский — дублированный]
Аудио 3: AC3 5.1, 448 Кбит/сек [Русский — дублированный]
Видео: Идентификатор : 224 (0xE0) Формат : MPEG Video Версия формата : Version 2 Профиль формата : Main@Main Параметр BVOP формата : Да Параметр матрицы формата : Выборочная Параметр GOP формата : Variable Продолжительность : 23 м. Вид битрейта : Переменный Битрейт : 4870 Кбит/сек Максимальный битрейт : 7400 Кбит/сек Ширина : 720 пикселей Высота : 480 пикселей Соотношение сторон : 16:9 Частота кадров : 23,976 кадра/сек Стандарт вещания : NTSC Цветовое пространство : YUV Субдискретизация насыщенности : 4:2:0 Битовая глубина : 8 бит Тип развёртки : Прогрессивная Порядок развёртки : 2:3 Pulldown Метод сжатия : С потерями Бит/(Пиксели*Кадры) : 0.588 Временной код первого кадра : 02:28:47;10 Оригинал временного кода : Group of pictures header Размер потока : 803 Мбайт (78%)
Аудио #1: Идентификатор : 189 (0xBD)-128 (0x80) Формат : AC-3 Формат/Информация : Audio Coding 3 Расширение режима : CM (complete main) Параметр Endianness формата : Big Режим смешивания : DVD-Video Продолжительность : 23 м. Вид битрейта : Постоянный Битрейт : 384 Кбит/сек Каналы : 6 каналов Расположение каналов : Front: L C R, Side: L R, LFE Частота : 48,0 КГц Битовая глубина : 16 бит Метод сжатия : С потерями Задержка видео : -300 мс. Размер потока : 63,3 Мбайт (6%)
Аудио #2: Идентификатор : 189 (0xBD)-129 (0x81) Формат : AC-3 Формат/Информация : Audio Coding 3 Расширение режима : CM (complete main) Параметр Endianness формата : Big Режим смешивания : DVD-Video Продолжительность : 23 м. Вид битрейта : Постоянный Битрейт : 384 Кбит/сек Каналы : 6 каналов Расположение каналов : Front: L C R, Side: L R, LFE Частота : 48,0 КГц Битовая глубина : 16 бит Метод сжатия : С потерями Задержка видео : -300 мс. Размер потока : 63,3 Мбайт (6%)
Аудио #3: Идентификатор : 189 (0xBD)-130 (0x82) Формат : AC-3 Формат/Информация : Audio Coding 3 Расширение режима : CM (complete main) Параметр Endianness формата : Big Режим смешивания : DVD-Video Продолжительность : 23 м. Вид битрейта : Постоянный Битрейт : 448 Кбит/сек Каналы : 6 каналов Расположение каналов : Front: L C R, Side: L R, LFE Частота : 48,0 КГц Битовая глубина : 16 бит Метод сжатия : С потерями Задержка видео : -300 мс. Размер потока : 73,9 Мбайт (7%)
Субтитры: Английские, французские, русские
Видео: MPEG-2, 720×480@853×480 (NTSC 16:9),

Статьи по теме