Майор Пейн скачать торрент в Хорошем Качестве

      Комментарии к записи Майор Пейн скачать торрент в Хорошем Качестве отключены

Уважаемый гость, на данной странице Вам доступен материал по теме: Майор Пейн скачать торрент в Хорошем Качестве. Скачивание возможно на компьютер и телефон через торрент, а также сервер загрузок по ссылке ниже. Рекомендуем также другие статьи из категории «Торренты».

Майор Пейн скачать торрент в Хорошем Качестве.rar
Закачек 767
Средняя скорость 7695 Kb/s

Майор Пейн скачать торрент в Хорошем Качестве

Герой фильма – майор Бенсон Уинфред Пэйн – образцовый военный, боец элитного подразделения и не мыслит себя вне службы в армии. Все, что он умеет – это воевать, и больше его ничего в жизни не привлекает.

Но за все свои заслуги герой вместо ожидаемого повышения по службе, получает неожиданную отставку. Теперь ему приходится привыкать к обычной гражданской жизни, но здесь ему все чуждо, и он никак не может приспособиться к существованию в мирных условиях. Перебрав кучу вакансий, герой не находит подходящей работы и бесцельно проводит свои дни в номере отеля.

Майор Пейн скачать торрент в Хорошем Качестве

Слоган: «He’s looking for a few good men. or a few guys old enough to shave»

Но однажды ему предлагают место инструктора в школе с военным уклоном. Прибыв на место, герой обнаруживает кучу разболтанных детишек, ничего не знающих о военной дисциплине. Майор Пэйн решает исправить это недоразумение, и с присущей ему самоотдачей берется за воспитание своих подопечных.

384.00 kbps avg
Субтитры: Russian (Forced — iTunes, Full), English (Full, SDH — iTunes)

192.00 kbps avg |Многоголосый закадровый,
Аудио#7: English: 48 kHz, AC3, 3/2 (L,C,R,l,r) + LFE ch,

Майор Пэйн

160.00 kbps avg |Многоголосый закадровый,
Аудио#2: Russian: 48 kHz, AC3, 3/2 (L,C,R,l,r) + LFE ch,

3000 kbps, 23,976 fps
Аудио 1: AC-3, 448 kbps, 6ch, 48,0 KHz |НТВ+|
Аудио 2: AC-3, 448 kbps, 6ch, 48,0 KHz |CDV|
Аудио 3: AC-3, 384 kbps, 6ch, 48,0 KHz |Original|
Видео: Идентификатор : 1 Формат : AVC Формат/Информация : Advanced Video Codec Профиль формата : High@L4.1 Параметр CABAC формата : Да Параметр ReFrames формата : 7 кадров Идентификатор кодека : V_MPEG4/ISO/AVC Продолжительность : 1 ч. 37 м. Битрейт : 3008 Кбит/сек Ширина : 1008 пикселей Высота : 544 пикселя Соотношение сторон : 1,85:1 Частота кадров : 23,976 кадра/сек Цветовое пространство : YUV Субдискретизация насыщенности : 4:2:0 Битовая глубина : 8 бит Тип развёртки : Прогрессивная Бит/(Пиксели*Кадры) : 0.229 Размер потока : 1,98 Гбайт (68%) Заголовок : Major Payne Библиотека кодирования : x264 core 119 r2106 07efeb4 Настройки программы : cabac=1 / ref=7 / deblock=1:-1:-2 / analyse=0x3:0x133 / me=umh / subme=11 / psy=1 / psy_rd=1.00:0.10 / mixed_ref=1 / me_range=32 / chroma_me=1 / trellis=2 / 8x8dct=1 / cqm=0 / deadzone=21,11 / fast_pskip=1 / chroma_qp_offset=-3 / threads=4 / sliced_threads=0 / nr=0 / decimate=0 / interlaced=0 / bluray_compat=0 / constrained_intra=0 / bframes=9 / b_pyramid=2 / b_adapt=2 / b_bias=0 / direct=3 / weightb=1 / open_gop=0 / weightp=2 / keyint=250 / keyint_min=23 / scenecut=40 / intra_refresh=0 / rc_lookahead=50 / rc=2pass / mbtree=1 / bitrate=3008 / ratetol=1.0 / qcomp=0.60 / qpmin=0 / qpmax=69 / qpstep=4 / cplxblur=20.0 / qblur=0.5 / ip_ratio=1.40 / aq=1:1.00 Язык : English Default : Да Forced : Нет
Аудио #1: Идентификатор : 2 Формат : AC-3 Формат/Информация : Audio Coding 3 Расширение режима : CM (complete main) Параметр Endianness формата : Big Идентификатор кодека : A_AC3 Продолжительность : 1 ч. 37 м. Вид битрейта : Постоянный Битрейт : 448 Кбит/сек Каналы : 6 каналов Расположение каналов : Front: L C R, Side: L R, LFE Частота : 48,0 КГц Битовая глубина : 16 бит Метод сжатия : С потерями Размер потока : 311 Мбайт (10%) Заголовок : MVO НТВ+ Язык : Russian Default : Да Forced : Нет
Аудио #2: Идентификатор : 3 Формат : AC-3 Формат/Информация : Audio Coding 3 Расширение режима : CM (complete main) Параметр Endianness формата : Big Идентификатор кодека : A_AC3 Продолжительность : 1 ч. 37 м. Вид битрейта : Постоянный Битрейт : 448 Кбит/сек Каналы : 6 каналов Расположение каналов : Front: L C R, Side: L R, LFE Частота : 48,0 КГц Битовая глубина : 16 бит Метод сжатия : С потерями Размер потока : 311 Мбайт (10%) Заголовок : VO CDV Язык : Russian Default : Нет Forced : Нет
Аудио #3: Идентификатор : 4 Формат : AC-3 Формат/Информация : Audio Coding 3 Расширение режима : CM (complete main) Параметр Endianness формата : Big Идентификатор кодека : A_AC3 Продолжительность : 1 ч. 37 м. Вид битрейта : Постоянный Битрейт : 384 Кбит/сек Каналы : 6 каналов Расположение каналов : Front: L C R, Side: L R, LFE Частота : 48,0 КГц Битовая глубина : 16 бит Метод сжатия : С потерями Размер потока : 267 Мбайт (9%) Заголовок : Original Язык : English Default : Нет Forced : Нет

Статьи по теме