Миллион Способов Потерять Голову скачать торрент

      Комментарии к записи Миллион Способов Потерять Голову скачать торрент отключены

Уважаемый гость, на данной странице Вам доступен материал по теме: Миллион Способов Потерять Голову скачать торрент. Скачивание возможно на компьютер и телефон через торрент, а также сервер загрузок по ссылке ниже. Рекомендуем также другие статьи из категории «Торренты».

Миллион Способов Потерять Голову скачать торрент.rar
Закачек 1036
Средняя скорость 1386 Kb/s

Миллион Способов Потерять Голову скачать торрент

Временная техническая неполадка возникла из-за того, что AdBlock ввел новые правила для блокирования окон. Теперь ошибка устранена, и если у вас все еще недоступны некоторые функции, обновите подписки в настройках приложения ADBlock.

Мы немного изменили элементы на странице с фильмом таким образом, чтобы кинолюбителям было максимально удобно найти всю необходимую информацию о фильме, посмотреть его онлайн, скачать или использовать другой многочисленный функционал нашего сайта. Основное нововведение — плеер для онлайн просмотра расположен вверху страницы.

Миллион Способов Потерять Голову скачать торрент

Рады сообщить вам о том, что теперь на сайте есть возможность смотреть фильмы онлайн. Также добавлены и другие полезные функции.

Угораздило же влюбиться не в том месте и не в то время. Здесь хамят в ресторанах, о горячей воде слагают легенды, да и с транспортом полный коллапс. Но у таинственной незнакомки отменная фигура, да и стреляет она без промаха. Кто же по своей воле откажется от такой красотки?

Не забывайте оставаться на раздаче после того, как скачали торрент! Помогите скачать и другим — поддержите свободный обмен!

1915 kbps avg, 0.36 bit/pixel
Аудио #1: (DUB) 48 kHz, AC3 Dolby Digital, 3/2 (L,C,R,l,r) + LFE ch, 384.00 kbps avg
Аудио #2: (ENG) 48 kHz, AC3 Dolby Digital, 3/2 (L,C,R,l,r) + LFE ch, 384.00 kbps avg

Миллион способов потерять голову

Ресурс N-TORRENTS.RU не содержит никакой нелегальной информации. На сервере хранятся только торрент-файлы, содержащие в себе хеш-суммы файлов, свободно доступных в Сети.

Владельцы данного ресурса не несут ответственности за действия пользователей, размещающих здесь информацию, охраняемую авторским правом. Если Вы — обладатель авторских прав на материал, Вы можете связаться с нами через форму обратной связи и прекратить размещение его копий на всех страницах сайта. Мы оставляем за собой право потребовать у вас правоустанавливающие документы. Максимальное время рассмотрения жалобы — 48 часов с момента получения письма. Данный ресурс полностью анонимный: IP-адреса и действия пользователей не сохраняются.

192 kbps |Авторский (одноголосый, закадровый)
Аудио #4: 48 kHz, AC3 Dolby Digital, 2 ch,

192 kbps |Профессиональный (многоголосый, закадровый)
Аудио #3: 48 kHz, AC3 Dolby Digital, 2 ch,

Миллион способов потерять голову

192 kbps |Профессиональный (дублированный)
Аудио #2: 48 kHz, AC3 Dolby Digital, 2 ch,

192 kbps |Оригинал (английский)
Субтитры: Русские
Видео: Идентификатор : 1 Формат : AVC Формат/Информация : Advanced Video Codec Профиль формата : High@L4.1 Параметр CABAC формата : Да Параметр ReFrames формата : 10 кадров Идентификатор кодека : V_MPEG4/ISO/AVC Продолжительность : 2 ч. 14 м. Битрейт : 2322 Кбит/сек Ширина : 1056 пикселей Высота : 448 пикселей Соотношение сторон : 2,35:1 Режим частоты кадров : Постоянный Частота кадров : 23,976 кадра/сек Цветовое пространство : YUV Субдискретизация насыщенности : 4:2:0 Битовая глубина : 8 бит Тип развёртки : Прогрессивная Бит/(Пиксели*Кадры) : 0.205 Размер потока : 2,13 Гбайт (73%) Заголовок : Rip by zzZGVvv Библиотека кодирования : x264 core 125 r2208 d9d2288 Настройки программы : cabac=1 / ref=10 / deblock=1:-2:-1 / analyse=0x3:0x133 / me=umh / subme=10 / psy=1 / psy_rd=1.00:0.10 / mixed_ref=1 / me_range=24 / chroma_me=1 / trellis=2 / 8x8dct=1 / cqm=0 / deadzone=21,11 / fast_pskip=0 / chroma_qp_offset=-3 / threads=3 / lookahead_threads=1 / sliced_threads=0 / slices=4 / nr=0 / decimate=1 / interlaced=0 / bluray_compat=0 / constrained_intra=0 / bframes=8 / b_pyramid=2 / b_adapt=2 / b_bias=0 / direct=3 / weightb=1 / open_gop=0 / weightp=2 / keyint=240 / keyint_min=23 / scenecut=40 / intra_refresh=0 / rc=2pass / mbtree=0 / bitrate=2322 / ratetol=1.0 / qcomp=0.60 / qpmin=0 / qpmax=69 / qpstep=4 / cplxblur=20.0 / qblur=0.5 / ip_ratio=1.40 / pb_ratio=1.30 / aq=1:1.00 Default : Да Forced : Нет
Аудио #1: Идентификатор : 2 Формат : AC-3 Формат/Информация : Audio Coding 3 Расширение режима : CM (complete main) Параметр Endianness формата : Big Идентификатор кодека : A_AC3 Продолжительность : 2 ч. 14 м. Вид битрейта : Постоянный Битрейт : 192 Кбит/сек Каналы : 2 канала Расположение каналов : Front: L R Частота : 48,0 КГц Битовая глубина : 16 бит Метод сжатия : С потерями Размер потока : 185 Мбайт (6%) Заголовок : Профессиональный (дублированный) Язык : Russian Default : Нет Forced : Нет
Аудио #2: Идентификатор : 3 Формат : AC-3 Формат/Информация : Audio Coding 3 Расширение режима : CM (complete main) Параметр Endianness формата : Big Идентификатор кодека : A_AC3 Продолжительность : 2 ч. 14 м. Вид битрейта : Постоянный Битрейт : 192 Кбит/сек Каналы : 2 канала Расположение каналов : Front: L R Частота : 48,0 КГц Битовая глубина : 16 бит Метод сжатия : С потерями Размер потока : 185 Мбайт (6%) Заголовок : Профессиональный (многоголосый, закадровый) [FiliZa Studio] Язык : Russian Default : Нет Forced : Нет
Аудио #3: Идентификатор : 4 Формат : AC-3 Формат/Информация : Audio Coding 3 Расширение режима : CM (complete main) Параметр Endianness формата : Big Идентификатор кодека : A_AC3 Продолжительность : 2 ч. 14 м. Вид битрейта : Постоянный Битрейт : 192 Кбит/сек Каналы : 2 канала Расположение каналов : Front: L R Частота : 48,0 КГц Битовая глубина : 16 бит Метод сжатия : С потерями Размер потока : 185 Мбайт (6%) Заголовок : Авторский (одноголосый, закадровый) [Алексей Матвеев] Язык : Russian Default : Да Forced : Да
Аудио #4: Идентификатор : 5 Формат : AC-3 Формат/Информация : Audio Coding 3 Расширение режима : CM (complete main) Параметр Endianness формата : Big Идентификатор кодека : A_AC3 Продолжительность : 2 ч. 14 м. Вид битрейта : Постоянный Битрейт : 192 Кбит/сек Каналы : 2 канала Расположение каналов : Front: L R Частота : 48,0 КГц Битовая глубина : 16 бит Метод сжатия : С потерями Размер потока : 185 Мбайт (6%) Заголовок : Оригинал Язык : English Default : Нет Forced : Нет

Статьи по теме