Nfs Жажда Скорости скачать торрент

      Комментарии к записи Nfs Жажда Скорости скачать торрент отключены

Уважаемый гость, на данной странице Вам доступен материал по теме: Nfs Жажда Скорости скачать торрент. Скачивание возможно на компьютер и телефон через торрент, а также сервер загрузок по ссылке ниже. Рекомендуем также другие статьи из категории «Торренты».

Nfs Жажда Скорости скачать торрент.rar
Закачек 2145
Средняя скорость 6892 Kb/s

Nfs Жажда Скорости скачать торрент

Год выпуска: 2014
Страна: США
Жанр: боевик, триллер, драма, криминал
Продолжительность: 02:10:42
Озвучивание: профессиональное, дублированное [лицензия]

Описание: История Тоби Маршалла, гениального автомеханика, чьей единственной отдушиной является участие в подпольных гонках. Чтобы сохранить семейную мастерскую, Тоби вынужден взять в партнеры богатого и заносчивого бывшего гонщика NASCAR Дино Брюстера. Когда дела Тоби наконец-то начинают идти в гору, Дино подставляет партнера, и Тоби обвиняют в преступлении, которого он не совершал. Спустя два года Тоби выходит из тюрьмы с мыслью о мести. Чтобы достичь своей цели, ему придется совершить невозможное и доказать, что даже в мире броских суперкаров самый невзрачный гонщик может финишировать первым.

Need for Speed: Жажда скорости (2014) HDRip — Лицензия

Режиссер: Скотт Во
В ролях: Аарон Пол, Доминик Купер, Имоджен Путс, Дакота Джонсон, Майкл Китон, Рамон Родригес, Ник Чинланд, Скотт Мескади, Рами Малек, Харрисон Джилбертсон

Качество: HDRip
Контейнер: AVI
Видео: 1103 Kbit/s, 720×304
Аудио: AC3, 2 ch, 384 kbps
Размер: 1.36 GB

2998 kbps avg, 0.285 bit/pixel
Аудио #1: 48 kHz, AC3 Dolby Digital, 3/2 (L,C,R,l,r) + LFE ch,

8.7 Mbps
Аудио: #1 — Русский / AC3 / 48 KHz / 5.1 ch / 640 Kbps (Дубляж — BD 3D Eur)
Субтитры: (SRT)

Need for Speed: Жажда скорости

11800 kbps avg
Аудио 1: Russian 48 kHz, AC3, 3/2 (L,C,R,l,r) + LFE ch, 640.00 kbps avg | BD EUR
Аудио 2: English 48 kHz, DTS, 3/2 (L,C,R,l,r) + LFE ch, 1509.00 kbps avg | Original
Субтитры: русские (forced, full), английские (full)
Формат: Matroska
Видео: Идентификатор
Формат: AVC
Аудио #1: Идентификатор
Формат: AC-3
Аудио #2: Идентификатор
Формат: DTS
Формат: UTF-8
Формат: UTF-8
Формат: UTF-8

448 kbps (VO.JAROCKIJ)(отдельно)
Видео: Идентификатор : 1 Формат : AVC Формат/Информация : Advanced Video Codec Профиль формата : High@L4.1 Параметр CABAC формата : Да Параметр ReFrames формата : 14 кадров Идентификатор кодека : V_MPEG4/ISO/AVC Продолжительность : 2 ч. 10 м. Битрейт : 2998 Кбит/сек Ширина : 1024 пикселя Высота : 428 пикселей Соотношение сторон : 2,40:1 Режим частоты кадров : Постоянный Частота кадров : 23,976 кадра/сек Цветовое пространство : YUV Субдискретизация насыщенности : 4:2:0 Битовая глубина : 8 бит Тип развёртки : Прогрессивная Бит/(Пиксели*Кадры) : 0.285 Размер потока : 2,67 Гбайт (75%) Заголовок : Need for Speed: Жажда скорости / Need for Speed (2014) BDRip-AVC by HQCLUB [Elheym] Библиотека кодирования : x264 core 142 r2431 ac76440 Настройки программы : cabac=1 / ref=14 / deblock=1:-3:-2 / analyse=0x3:0x113 / me=umh / subme=11 / psy=1 / psy_rd=1.00:0.00 / mixed_ref=1 / me_range=32 / chroma_me=1 / trellis=2 / 8x8dct=1 / cqm=0 / deadzone=21,11 / fast_pskip=1 / chroma_qp_offset=-4 / threads=6 / lookahead_threads=1 / sliced_threads=0 / nr=0 / decimate=1 / interlaced=0 / bluray_compat=0 / constrained_intra=0 / bframes=9 / b_pyramid=2 / b_adapt=2 / b_bias=0 / direct=3 / weightb=1 / open_gop=0 / weightp=2 / keyint=240 / keyint_min=23 / scenecut=40 / intra_refresh=0 / rc_lookahead=40 / rc=2pass / mbtree=1 / bitrate=2998 / ratetol=1.0 / qcomp=0.60 / qpmin=10 / qpmax=69 / qpstep=4 / cplxblur=20.0 / qblur=0.5 / vbv_maxrate=50000 / vbv_bufsize=62500 / nal_hrd=none / filler=0 / ip_ratio=1.40 / aq=1:0.70 Язык : English Default : Да Forced : Нет
Аудио #1: Идентификатор : 2 Формат : AC-3 Формат/Информация : Audio Coding 3 Расширение режима : CM (complete main) Параметр Endianness формата : Big Идентификатор кодека : A_AC3 Продолжительность : 2 ч. 10 м. Вид битрейта : Постоянный Битрейт : 448 Кбит/сек Каналы : 6 каналов Расположение каналов : Front: L C R, Side: L R, LFE Частота : 48,0 КГц Битовая глубина : 16 бит Метод сжатия : С потерями Размер потока : 419 Мбайт (12%) Заголовок : АС3 5.1 @ 448 kbps — Dub Язык : Russian Default : Нет Forced : Нет
Аудио #2: Идентификатор : 3 Формат : AC-3 Формат/Информация : Audio Coding 3 Расширение режима : CM (complete main) Параметр Endianness формата : Big Идентификатор кодека : A_AC3 Продолжительность : 2 ч. 10 м. Вид битрейта : Постоянный Битрейт : 448 Кбит/сек Каналы : 6 каналов Расположение каналов : Front: L C R, Side: L R, LFE Частота : 48,0 КГц Битовая глубина : 16 бит Метод сжатия : С потерями Размер потока : 419 Мбайт (12%) Заголовок : АС3 5.1 @ 448 kbps — Original Язык : English Default : Нет Forced : Нет

Статьи по теме