Скачать торрент Бурундуки 3

      Комментарии к записи Скачать торрент Бурундуки 3 отключены

Уважаемый гость, на данной странице Вам доступен материал по теме: Скачать торрент Бурундуки 3. Скачивание возможно на компьютер и телефон через торрент, а также сервер загрузок по ссылке ниже. Рекомендуем также другие статьи из категории «Торренты».

Скачать торрент Бурундуки 3.rar
Закачек 2797
Средняя скорость 6640 Kb/s

Скачать торрент Бурундуки 3

Тройка бодрых и неунывающих бурундуков готова вновь порадовать зрителей умопомрачительными приключениями, в которых не обойдется без порции отличного юмора. Теодор, Элвин и Саймон увлекают по традиции в свои передряги опекуна Дейва, а также трех своих прекрасных девушек. На сей раз бурундукам нужно будет отправиться на круизном лайнере в путешествие. Элвин попадет в большие неприятности. Как и всегда виной станут его выходки и бурундучья глупость. В итоге, компания зверей была выставлена строгим капитаном за борт, так бурундуки оказались на большом необитаемом острове.

Будучи в новом для себя месте, героям приходится сталкиваться с массой испытаний, а также целой чередой неприятностей. Более того, с ними произошли странные превращения, совершенно не радующие героев. Но смогут ли ребята выпутаться из этой истории. Есть только одна надежда на то, что Дейв не бросит подопечных в беде и обязательно отыщет их на этом острове. Но стоит ли на это надеяться, ведь у парня могут быть и свои проблемы. Приключения неунывающих бурундуков только начинаются…

Элвин и бурундуки 3 (2011)

Видео: 1280×688, 3209 Кбит/сек, 23,976 кадр/сек, AVC, x264, 1,860, 0.152 Бит/[Пиксели*Кадры], 2pass

Аудио: Audio1: Русский (DTS, 6 ch, 768 Кбит/с)
Audio2: английский (DTS, 6 ch, 1536 Кбит/с)

27061 kbps, High Profile 4.1
Аудио#1: DTS-HD Master Audio English 3898 kbps 5.1 / 48 kHz / 3898 kbps / 24-bit (DTS Core: 5.1 / 48 kHz / 1509 kbps / 24-bit)
Аудио#2: DTS Audio Italian 768 kbps 5.1 / 48 kHz / 768 kbps / 24-bit
Аудио#3: DTS Audio Russian 768 kbps 5.1 / 48 kHz / 768 kbps / 24-bit |Профессиональный (полное дублирование)|
Аудио#4: Dolby Digital Audio English 448 kbps 5.1 / 48 kHz / 448 kbps
Аудио#5: Dolby Digital Audio Croatian 448 kbps 5.1 / 48 kHz / 448 kbps
Аудио#6: Dolby Digital Audio Czech 448 kbps 5.1 / 48 kHz / 448 kbps
Аудио#7: Dolby Digital Audio Estonian 448 kbps 5.1 / 48 kHz / 448 kbps
Аудио#8: Dolby Digital Audio Hungarian 448 kbps 5.1 / 48 kHz / 448 kbps
Аудио#9: Dolby Digital Audio Icelandic 448 kbps 5.1 / 48 kHz / 448 kbps
Аудио#10: Dolby Digital Audio Latvian 448 kbps 5.1 / 48 kHz / 448 kbps
Аудио#11: Dolby Digital Audio Lithuanian 448 kbps 5.1 / 48 kHz / 448 kbps
Аудио#12: Dolby Digital Audio Portuguese 448 kbps 5.1 / 48 kHz / 448 kbps
Аудио#13: Dolby Digital Audio Serbian 448 kbps 5.1 / 48 kHz / 448 kbps
Аудио#14: Dolby Digital Audio Slovenian 448 kbps 5.1 / 48 kHz / 448 kbps
Аудио#15: Dolby Digital Audio Ukrainian 448 kbps 5.1 / 48 kHz / 448 kbps

448.00 kbps avg |Дубляж, CEE|
Видео: Идентификатор : 1 Формат : AVC Формат/Информация : Advanced Video Codec Профиль формата : High@L4.1 Параметр CABAC формата : Да Параметр ReFrames формата : 9 кадров Идентификатор кодека : V_MPEG4/ISO/AVC Продолжительность : 1 ч. 27 м. Битрейт : 11,1 Мбит/сек Ширина : 1280 пикселей Высота : 694 пикселя Соотношение сторон : 1,85:1 Режим частоты кадров : Постоянный Частота кадров : 23,976 кадра/сек Цветовое пространство : YUV Субдискретизация насыщенности : 4:2:0 Битовая глубина : 8 бит Тип развёртки : Прогрессивная Бит/(Пиксели*Кадры) : 0.522 Размер потока : 6,77 Гбайт (79%) Библиотека кодирования : x264 core 122 r2184 5c85e0a Настройки программы : cabac=1 / ref=9 / deblock=1:-3:-3 / analyse=0x3:0x113 / me=umh / subme=9 / psy=1 / psy_rd=0.90:0.05 / mixed_ref=1 / me_range=16 / chroma_me=1 / trellis=2 / 8x8dct=1 / cqm=0 / deadzone=21,11 / fast_pskip=0 / chroma_qp_offset=-3 / threads=12 / sliced_threads=0 / nr=0 / decimate=0 / interlaced=0 / bluray_compat=0 / constrained_intra=0 / bframes=7 / b_pyramid=2 / b_adapt=2 / b_bias=0 / direct=3 / weightb=1 / open_gop=0 / weightp=2 / keyint=250 / keyint_min=23 / scenecut=40 / intra_refresh=0 / rc=crf / mbtree=0 / crf=16.3 / qcomp=0.60 / qpmin=0 / qpmax=69 / qpstep=4 / ip_ratio=1.40 / pb_ratio=1.30 / aq=1:0.60 Язык : English Default : Да Forced : Нет Коэффициенты матрицы : BT.709
Аудио #1: Идентификатор : 2 Формат : DTS Формат/Информация : Digital Theater Systems Режим : 16 Параметр Endianness формата : Big Идентификатор кодека : A_DTS Продолжительность : 1 ч. 27 м. Вид битрейта : Постоянный Битрейт : 768 Кбит/сек Каналы : 6 каналов Расположение каналов : Front: L C R, Side: L R, LFE Частота : 48,0 КГц Битовая глубина : 24 бит Метод сжатия : С потерями Размер потока : 479 Мбайт (5%) Заголовок : |Дубляж, Blu-Ray| Язык : Russian Default : Да Forced : Нет
Аудио #2: Идентификатор : 3 Формат : AC-3 Формат/Информация : Audio Coding 3 Расширение режима : CM (complete main) Параметр Endianness формата : Big Идентификатор кодека : A_AC3 Продолжительность : 1 ч. 27 м. Вид битрейта : Постоянный Битрейт : 448 Кбит/сек Каналы : 6 каналов Расположение каналов : Front: L C R, Side: L R, LFE Частота : 48,0 КГц Битовая глубина : 16 бит Метод сжатия : С потерями Размер потока : 279 Мбайт (3%) Заголовок : |Дубляж, Blu-Ray| Язык : Ukrainian Default : Нет Forced : Нет
Аудио #3: Идентификатор : 4 Формат : DTS Формат/Информация : Digital Theater Systems Режим : 16 Параметр Endianness формата : Big Идентификатор кодека : A_DTS Продолжительность : 1 ч. 27 м. Вид битрейта : Постоянный Битрейт : 1509 Кбит/сек Каналы : 6 каналов Расположение каналов : Front: L C R, Side: L R, LFE Частота : 48,0 КГц Битовая глубина : 24 бит Метод сжатия : С потерями Размер потока : 941 Мбайт (11%) Язык : English Default : Нет Forced : Нет

Элвин и бурундуки 3

1995 kbps avg, 0.31 bit/pixel
Аудио #1: 48 kHz, AC3 Dolby Digital, 3/2 (L,C,R,l,r) + LFE ch,

1937 kbps avg, 0.30 bit/pixel
Аудио #1: 48 kHz, AC3 Dolby Digital, 3/2 (L,C,R,l,r) + LFE ch,

Статьи по теме