Скачать Великий Гэтсби торрентино

      Комментарии к записи Скачать Великий Гэтсби торрентино отключены

Уважаемый гость, на данной странице Вам доступен материал по теме: Скачать Великий Гэтсби торрентино. Скачивание возможно на компьютер и телефон через торрент, а также сервер загрузок по ссылке ниже. Рекомендуем также другие статьи из категории «Торренты».

Скачать Великий Гэтсби торрентино.rar
Закачек 2108
Средняя скорость 9193 Kb/s

Скачать Великий Гэтсби торрентино

448.00 kbps avg (RUS, AVO) Ю. Сербин(Отдельно на http)
Аудио #4: 48 kHz, AC3, 3/2 (L,C,R,l,r) + LFE ch,

4870 kbps, Auto Letterboxed
Аудио 1: 48 kHz, Dolby AC3, 6 ch, 384 kbps, английский
Аудио 2: 48 kHz, Dolby AC3, 6 ch, 384 kbps, польский
Аудио 3: 48 kHz, Dolby AC3, 6 ch, 384 kbps,русский
Аудио 4: 48 kHz, Dolby AC3, 2 ch, 192 kbps, турецкий
Аудио 5: 48 kHz, Dolby AC3, 6 ch, 384 kbps, украинский

Великий Гэтсби

448.00 kbps avg (RUS, AVO) Ю. Сербин(Отдельно на http)
Аудио #4: 48 kHz, AC3, 3/2 (L,C,R,l,r) + LFE ch,

448.00 kbps avg (UKR. DUB)(Отдельно на http)
Видео: Идентификатор : 1 Формат : AVC Формат/Информация : Advanced Video Codec Профиль формата : High@L4.1 Параметр CABAC формата : Да Параметр ReFrames формата : 10 кадров Идентификатор кодека : V_MPEG4/ISO/AVC Продолжительность : 2 ч. 22 м. Битрейт : 2028 Кбит/сек Ширина : 1024 пикселя Высота : 426 пикселей Соотношение сторон : 2,40:1 Режим частоты кадров : Постоянный Частота кадров : 23,976 кадра/сек Цветовое пространство : YUV Субдискретизация насыщенности : 4:2:0 Битовая глубина : 8 бит Тип развёртки : Прогрессивная Бит/(Пиксели*Кадры) : 0.194 Размер потока : 1,96 Гбайт (67%) Заголовок : Великий Гэтсби / The Great Gatsby (2013) BDRip-AVC by MOSFET | HQCLUB.NET Библиотека кодирования : x264 core 133 r2334 a3ac64b Настройки программы : cabac=1 / ref=10 / deblock=1:-2:-1 / analyse=0x3:0x113 / me=esa / subme=10 / psy=1 / psy_rd=1.00:0.00 / mixed_ref=1 / me_range=64 / chroma_me=1 / trellis=2 / 8x8dct=1 / cqm=0 / deadzone=21,11 / fast_pskip=0 / chroma_qp_offset=-2 / threads=12 / lookahead_threads=3 / sliced_threads=0 / nr=0 / decimate=1 / interlaced=0 / bluray_compat=0 / constrained_intra=0 / bframes=10 / b_pyramid=2 / b_adapt=2 / b_bias=0 / direct=3 / weightb=1 / open_gop=0 / weightp=2 / keyint=240 / keyint_min=23 / scenecut=40 / intra_refresh=0 / rc_lookahead=50 / rc=2pass / mbtree=1 / bitrate=2028 / ratetol=1.0 / qcomp=0.70 / qpmin=0 / qpmax=69 / qpstep=4 / cplxblur=20.0 / qblur=0.5 / vbv_maxrate=50000 / vbv_bufsize=62500 / nal_hrd=none / ip_ratio=1.40 / aq=1:0.80 Язык : English Default : Да Forced : Нет
Аудио #1: Идентификатор : 2 Формат : AC-3 Формат/Информация : Audio Coding 3 Расширение режима : CM (complete main) Параметр Endianness формата : Big Идентификатор кодека : A_AC3 Продолжительность : 2 ч. 22 м. Вид битрейта : Постоянный Битрейт : 448 Кбит/сек Каналы : 6 каналов Расположение каналов : Front: L C R, Side: L R, LFE Частота : 48,0 КГц Битовая глубина : 16 бит Метод сжатия : С потерями Размер потока : 455 Мбайт (15%) Заголовок : Профессиональный (полное дублирование) Blu-ray EUR Язык : Russian Default : Да Forced : Нет
Аудио #2: Идентификатор : 3 Формат : AC-3 Формат/Информация : Audio Coding 3 Расширение режима : CM (complete main) Параметр Endianness формата : Big Идентификатор кодека : A_AC3 Продолжительность : 2 ч. 22 м. Вид битрейта : Постоянный Битрейт : 448 Кбит/сек Каналы : 6 каналов Расположение каналов : Front: L C R, Side: L R, LFE Частота : 48,0 КГц Битовая глубина : 16 бит Метод сжатия : С потерями Размер потока : 455 Мбайт (15%) Заголовок : Оригинальная звуковая дорожка Язык : English Default : Нет Forced : Нет

4870 kbps, Auto Letterboxed
Аудио: Аудио 1: 48 kHz, Dolby AC3, 6 ch, 384 kbps, английский
Аудио 2: 48 kHz, Dolby AC3, 6 ch, 384 kbps, польский
Аудио 3: 48 kHz, Dolby AC3, 6 ch, 384 kbps, русский
Аудио 4: 48 kHz, Dolby AC3, 2 ch, 192 kbps, турецкий
Аудио 5: 48 kHz, Dolby AC3

2034 kbps; 0.39 bit/pixel
Аудио: Аудио #1: Russian AC3 Dolby Digital; 448 Kbps; 6 channels; 48 KHz
Аудио #2: English AC3 Dolby Digital; 448 Kbps; 6 channels; 48 KHz
Аудио #3: Ukrainian AC3 Dolby Digital; 448 Kbps; 6 channels; 48 KHz | отдельно

Великий Гэтсби через торрент

2183.00 kbps avg |Одноголосый закадровый, Ю.Сербин|
Аудио#4: English: 48 kHz/24-bit, DTS-HD MA 5.1,

384.00 kbps avg | Авторский, одноголосый закадровый, Ю.Сербин |
Аудио#3: english : 48 kHz, AC3, 3/2 (L,C,R,l,r) + LFE ch,

Статьи по теме